I've been uploading to a private tracker and they're asking for the Container in the files I'm uploading. The options are as followed;
  • AVI
  • MKV
  • MP4
  • OGM
  • WMV
  • ISO
  • VOB IFO
  • TS
  • M2TS


I was under the impression that you can get the info from MediaInfo, and maybe you can but I'm not seeing it. Any idea what this file is?

 

General
Complete name : F:\Anime\Uploads\[hSa] Sensou no Tsukurikata What Happens Before War [戦争のつくりかた what happens before war] ONA (720p)\[hSa] Sensou no Tsukurikata What Happens Before War [戦争のつくりかた what happens before war] ONA (720p).mp4
Format : MPEG-4
Format profile : Base Media
Codec ID : isom (isom/iso2/avc1/mp41)
File size : 76.6 MiB
Duration : 7mn 37s
Overall bit rate : 1 404 Kbps
Writing application : Lavf55.19.104

Video
ID : 1
Format : AVC
Format/Info : Advanced Video Codec
Format profile : Main@L3.1
Format settings, CABAC : Yes
Format settings, ReFrames : 3 frames
Codec ID : avc1
Codec ID/Info : Advanced Video Coding
Duration : 7mn 37s
Bit rate : 1 272 Kbps
Width : 1 280 pixels
Height : 720 pixels
Display aspect ratio : 16:9
Frame rate mode : Variable
Frame rate : 23.976 (24000/1001) fps
Minimum frame rate : 23.974 fps
Maximum frame rate : 23.981 fps
Color space : YUV
Chroma subsampling : 4:2:0
Bit depth : 8 bits
Scan type : Progressive
Bits/(Pixel*Frame) : 0.058
Stream size : 69.4 MiB (91%)
Color range : Limited
Color primaries : BT.709
Transfer characteristics : BT.709
Matrix coefficients : BT.709

Audio
ID : 2
Format : AAC
Format/Info : Advanced Audio Codec
Format profile : LC
Codec ID : 40
Duration : 7mn 37s
Bit rate mode : Constant
Bit rate : 126 Kbps
Channel(s) : 2 channels
Channel positions : Front: L R
Sampling rate : 44.1 KHz
Frame rate : 43.066 fps (1024 spf)
Compression mode : Lossy
Stream size : 6.85 MiB (9%)
Default : Yes
Alternate group : 1