Page 1 of 2 12 LastLast
Results 1 to 15 of 16
  1. #1
    Scotia's Avatar
    Join Date
    Apr 2012
    Gender
    male
    Location
    boards.4chan.org/cm/
    Posts
    6,583
    Reputation
    1166
    Thanks
    1,721
    My Mood
    Relaxed

    YouTube is finally getting 60FPS

    Thank God, I was wondering when they were going to make the jump. According to these articles they're also going to be doing a few more upgrades that have been heavily asked for like adding a donation button so that you can directly support a channel. Glad to see YouTube making some big changes that the community have been asking for.

    https://twitter.com/YTCreators/statu...22459413053442

    https://kotaku.com/youtube-is-getting...lly-1596759330

    https://www.engadget.com/2014/06/26tube-upgrades/


  2. #2
    Expert at leaving women disappointed physically and emotionally.
    Premium Seller
    Premium Member
    Minionforce
    Wyo's Avatar
    Join Date
    Feb 2010
    Gender
    female
    Location
    Tijuana
    Posts
    23,268
    Reputation
    3495
    Thanks
    3,633
    My Mood
    Lurking
    Still dont like google+ So fuck youtube.
     
    I smoke dix daily.
    I am Dix, and Arun is my master.
    I'M #1 NIGXMAS SCAMMER

  3. #3
    Aborted's Avatar
    Join Date
    Nov 2010
    Gender
    male
    Location
    Shitpost Defense
    Posts
    17,632
    Reputation
    3137
    Thanks
    6,447
    My Mood
    Twisted
    Saw this on the PCMR Subreddit, I'm definitely hyped.
    I am the seer in the dark,
    the vagabond of yore,
    valediction.
    I am the sum of all your parts,
    and proprietor of all.
    A miasma,
    the conclusion,
    blackmonger of Inlé,
    valediction.
    Synapses fray,
    my form now vivid,
    as torpor sets and blood grows tepid.
    With every ounce of flesh now offered,
    I hold your corpse within my coffers.
    Knitted cells now split asunder,
    stand alongside me brother.
    Take your place amongst my Owsla,
    we march at dawn now and forever.


  4. #4
    | ∞ |'s Avatar
    Join Date
    Nov 2009
    Gender
    male
    Location
    In a white van.
    Posts
    3,320
    Reputation
    239
    Thanks
    301
    I'm more stoked about the donations thing. 60 FPS is a nice addon too.

  5. #5
    Scotia's Avatar
    Join Date
    Apr 2012
    Gender
    male
    Location
    boards.4chan.org/cm/
    Posts
    6,583
    Reputation
    1166
    Thanks
    1,721
    My Mood
    Relaxed
    The upside to this is that instead of me having to download a 200MB file to see 60FPS in game whilst watching a console vs PC video I can just watch the video, and of course the fact that video will be smoother than Color's pickup lines.

  6. The Following User Says Thank You to Scotia For This Useful Post:

    ThePixelJunk (06-27-2014)

  7. #6
    Quck's Avatar
    Join Date
    Feb 2012
    Gender
    male
    Posts
    1,810
    Reputation
    45
    Thanks
    163
    My Mood
    Amused
    So is this video in 60FPS? If so I don't see much of a difference. Also the donation button is a really good feature in my opinion.

  8. #7
    Scotia's Avatar
    Join Date
    Apr 2012
    Gender
    male
    Location
    boards.4chan.org/cm/
    Posts
    6,583
    Reputation
    1166
    Thanks
    1,721
    My Mood
    Relaxed
    Quote Originally Posted by NeoN07 View Post
    So is this video in 60FPS? If so I don't see much of a difference. Also the donation button is a really good feature in my opinion.
    It will be when YouTube is updated, the video has been recorded and uploaded in 60FPS but YouTube limits the framerate.

  9. #8
    Zuhrain's Avatar
    Join Date
    Aug 2013
    Gender
    male
    Location
    In your pure heart
    Posts
    5,847
    Reputation
    810
    Thanks
    1,203
    My Mood
    Cheerful
    yeah. that's a good news. luckily Youtube make changes
    Support me.

  10. #9
    Jew's Avatar
    Join Date
    Apr 2013
    Gender
    male
    Location
    <dd style="overflow: hidden;">here</dd>
    Posts
    3,864
    Reputation
    289
    Thanks
    2,162
    My Mood
    Amazed
    fuck you youtube,setting the quality to 1080 doesnt do shit untill it magicly renders 1080p

    fuck you google
    Vouch thread





     

    Quote Originally Posted by foginho81 View Post
    Hello guys,5 mins ago i dowloaded this program, in 2 minutes i cracked an account, so i purchased Premium for supporting and have unlimited features!

    A+++ Tool GREAT CODER!
    Quote Originally Posted by shadowkiller198 View Post
    I just purchased a Premium account and I haven't had any problems with it!

    Quote Originally Posted by ImShan View Post
    Vouch for this guy!

    I just bought premium and works pretty good.
    Quote Originally Posted by SiiKFO View Post
    Vouch bought premium works very well
    Quote Originally Posted by DarkBlade324 View Post
    vouch i just bought premium it works great
    Quote Originally Posted by coolzombiesg View Post
    Vouch for him

    I just bought premium and works pretty good.
    Quote Originally Posted by KaizoPvP View Post
    VOUCHE: Yep, you are a legit seller, and I like the stuff you do.
    Quote Originally Posted by BTNGaming View Post
    Premium Purchased

  11. #10
    MrKennyPowers's Avatar
    Join Date
    Sep 2013
    Gender
    male
    Posts
    189
    Reputation
    16
    Thanks
    27
    Sounds like a good addition. Glad youtube/google is actually listening to the community.

  12. #11
    master131's Avatar
    Join Date
    Apr 2010
    Gender
    male
    Location
    Melbourne, Australia
    Posts
    8,855
    Reputation
    3438
    Thanks
    81,067
    My Mood
    Breezy
    Quote Originally Posted by Scotia View Post


    It will be when YouTube is updated, the video has been recorded and uploaded in 60FPS but YouTube limits the framerate.
    It's already 60FPS for me. If you have Chrome and the HTML5 Player (which is enabled by default), you should notice a huge difference (afaik, the resolution has to be 720p or above). I can also confirm via the WEBM metadata:
    Code:
    Format                                   : WebM
    Format version                           : Version 2
    File size                                : 29.0 MiB
    Duration                                 : 1mn 13s
    Overall bit rate                         : 3 314 Kbps
    Writing application                      : google
    Writing library                          : google
    
    Video
    ID                                       : 1
    Format                                   : VP9
    Codec ID                                 : V_VP9
    Duration                                 : 1mn 13s
    Bit rate                                 : 3 176 Kbps
    Width                                    : 1 920 pixels
    Height                                   : 1 080 pixels
    Display aspect ratio                     : 16:9
    Frame rate mode                          : Constant
    Frame rate                               : 59.880 fps
    Bits/(Pixel*Frame)                       : 0.026
    Stream size                              : 27.8 MiB (96%)
    Language                                 : English
    Default                                  : Yes
    Forced                                   : No
    Firefox & Internet Explorer currently does not support the new feature as they use Flash by default and they haven't implemented support for 60FPS yet. Even with the experimental HTML5 player enabled in Firefox (youtube.com/html5), it still does not work because the browser hasn't implemented all the required features to support this.

    Last edited by master131; 06-27-2014 at 08:12 PM.
    Donate:
    BTC: 1GEny3y5tsYfw8E8A45upK6PKVAEcUDNv9


    Handy Tools/Hacks:
    Extreme Injector v3.7.1 *NEW*
    A powerful and advanced injector in a simple GUI.
    Can scramble DLLs on injection making them harder to detect and even make detected hacks work again!

    Minion Since: 13th January 2011
    Moderator Since: 6th May 2011
    Global Moderator Since: 29th April 2012
    Super User/Unknown Since: 23rd July 2013
    'Game Hacking' Team Since: 30th July 2013

    --My Art--
    [Roxas - Pixel Art, WIP]
    [Natsu - Drawn]
    [Natsu - Coloured]


    All drawings are coloured using Photoshop.

    --Gifts--
    [Kyle]

  13. #12
    NetflixGuy's Avatar
    Join Date
    Jun 2014
    Gender
    male
    Posts
    17
    Reputation
    10
    Thanks
    0
    Quote Originally Posted by | ∞ | View Post
    I'm more stoked about the donations thing. 60 FPS is a nice addon too.
    What's the donators thing about? You can donate to content creators or?

    I'm stoked for 60 FPS too.

  14. #13
    Scotia's Avatar
    Join Date
    Apr 2012
    Gender
    male
    Location
    boards.4chan.org/cm/
    Posts
    6,583
    Reputation
    1166
    Thanks
    1,721
    My Mood
    Relaxed
    Quote Originally Posted by master131 View Post
    It's already 60FPS for me. If you have Chrome and the HTML5 Player (which is enabled by default), you should notice a huge difference (afaik, the resolution has to be 720p or above). I can also confirm via the WEBM metadata:
    Code:
    Format                                   : WebM
    Format version                           : Version 2
    File size                                : 29.0 MiB
    Duration                                 : 1mn 13s
    Overall bit rate                         : 3 314 Kbps
    Writing application                      : google
    Writing library                          : google
    
    Video
    ID                                       : 1
    Format                                   : VP9
    Codec ID                                 : V_VP9
    Duration                                 : 1mn 13s
    Bit rate                                 : 3 176 Kbps
    Width                                    : 1 920 pixels
    Height                                   : 1 080 pixels
    Display aspect ratio                     : 16:9
    Frame rate mode                          : Constant
    Frame rate                               : 59.880 fps
    Bits/(Pixel*Frame)                       : 0.026
    Stream size                              : 27.8 MiB (96%)
    Language                                 : English
    Default                                  : Yes
    Forced                                   : No
    Firefox & Internet Explorer currently does not support the new feature as they use Flash by default and they haven't implemented support for 60FPS yet. Even with the experimental HTML5 player enabled in Firefox (youtube.com/html5), it still does not work because the browser hasn't implemented all the required features to support this.

    The fact that the video has to be in 720p or above makes sense now. Looking at the video you can tell from a mile away that it's smoother.

    I presumed that they would be adding the feature in at a later date but it seems like they already have.

    Thank you based Tommy

  15. #14
    Eternity's Avatar
    Join Date
    Feb 2013
    Gender
    male
    Location
    Forever Ville.
    Posts
    11,026
    Reputation
    1839
    Thanks
    5,412
    About time they did it.
    Previous Names
    Eternity
    Azathoth


    Please press +Rep or Thanks if you find my work or found something I said helpful

    "Endless Void."



  16. #15
    Quck's Avatar
    Join Date
    Feb 2012
    Gender
    male
    Posts
    1,810
    Reputation
    45
    Thanks
    163
    My Mood
    Amused
    Quote Originally Posted by master131 View Post
    It's already 60FPS for me. If you have Chrome and the HTML5 Player (which is enabled by default), you should notice a huge difference (afaik, the resolution has to be 720p or above). I can also confirm via the WEBM metadata:
    Code:
    Format                                   : WebM
    Format version                           : Version 2
    File size                                : 29.0 MiB
    Duration                                 : 1mn 13s
    Overall bit rate                         : 3 314 Kbps
    Writing application                      : google
    Writing library                          : google
    
    Video
    ID                                       : 1
    Format                                   : VP9
    Codec ID                                 : V_VP9
    Duration                                 : 1mn 13s
    Bit rate                                 : 3 176 Kbps
    Width                                    : 1 920 pixels
    Height                                   : 1 080 pixels
    Display aspect ratio                     : 16:9
    Frame rate mode                          : Constant
    Frame rate                               : 59.880 fps
    Bits/(Pixel*Frame)                       : 0.026
    Stream size                              : 27.8 MiB (96%)
    Language                                 : English
    Default                                  : Yes
    Forced                                   : No
    Firefox & Internet Explorer currently does not support the new feature as they use Flash by default and they haven't implemented support for 60FPS yet. Even with the experimental HTML5 player enabled in Firefox (youtube.com/html5), it still does not work because the browser hasn't implemented all the required features to support this.

    Oh wow. I switched to 720p and the video is amazingly smooth! I was playing it alongside the 30fps version of the trailer and the difference is really big. THanks for that

Page 1 of 2 12 LastLast

Similar Threads

  1. Nexon finally getting off their asses.
    By N00B1O2 in forum Combat Arms Discussions
    Replies: 43
    Last Post: 02-01-2012, 12:42 PM
  2. Finally getting
    By Dakota in forum Call of Duty Black Ops Discussions
    Replies: 9
    Last Post: 12-23-2010, 06:22 AM
  3. After almost 1 year, Finall get VAC Banned...
    By DopeHat244 in forum Call of Duty Modern Warfare 2 Discussions
    Replies: 21
    Last Post: 12-16-2010, 09:56 AM
  4. Replies: 12
    Last Post: 10-08-2010, 05:09 PM
  5. I finally get LiquidForce Idea
    By nectros in forum Combat Arms Mod Discussion
    Replies: 13
    Last Post: 12-22-2009, 03:14 PM